注册 登录  
 加关注
   显示下一条  |  关闭
温馨提示!由于新浪微博认证机制调整,您的新浪微博帐号绑定已过期,请重新绑定!立即重新绑定新浪微博》  |  关闭

K's FanClub

SK一人語り

 
 
 

日志

 
 

あさゆめレビューかな?  

2008-07-30 19:14:41|  分类: PC GAME MEMO |  标签: |举报 |字号 订阅

  下载LOFTER 我的照片书  |

(日本語連発!?)同じくネタバレ重鎮(?)ですので、ご注意を~

 


 

攻略一段落です。諦めようーと思ったんのに、意外に楽しませてもらったvご馳走様でしたvvv

フールイベントCGはアルバム一号にあって、そのうち公開しますのでお楽しみに*=v=*

自分がクリアしたのは祇王ルート→カガチちゃんゲットw→そして霖たん(?)ですwww

もしかするとは思うだが、澪もそこそこの意味ではありませんか?霖&澪、ねぇ~w

GEに辿りつくには一心が重要です。その代わりに退魔師としての腕はどうだっていいのようです…←キャラ攻略だけの話

 

では バッドENDについて、ちょっとポイントを出しますね。

☆最初に7/29 祇王「伊那砂郷での依頼を」続けない  を選んだらB1(BADEND№1ってことで)「逃げる陽、残る月」になる(町に戻る、郷と一切関係なくなる)

☆30日 「一刻も早く祇王を助けなきゃいけない。でも……」祇王を助ける とB2「蛇ノ目」になる(カガチちゃんにやられてしまう)

☆31日 愁「その言葉にわたしは――」うなづいた とB3「雛鳥」になる(そんなにぃさんに甘えちゃ駄目だよ?)

☆4日 「これからどうしよう?」自分の部屋にいく とB4「禍津緋」になる(アヤに喰われてしまう…?)

*その他条件がある 多分能力が… 普通の退魔師と確認。

☆B5キャラ攻略中 選択肢を外した場合

☆B6キャラ攻略中 選択肢を外した場合

☆6日 夜の巡回 ?名無しの社 に行くとB7「赤の世界」になる(やられてしまう)

*能力不足が原因 状態:噂の退魔師、一流退魔師と確認。

*カガチルート中とイベントになるので、他のルートで当たっててくださいね。

☆9日 夜の巡回 ?四辻の祠 に行くとB8「人形姫の夜」になる(ミクちゃんの人形?おもちゃになる)

*同じく能力不足 普通の退魔師と確認。

☆10日 夜の巡回 ?中央広場 に行く、「このままじゃ……」で抵抗する とB9「永夜Ⅰ」になる(壱人のBAD1です)

☆B9と同じく、諦める を選んだらB10「永夜Ⅱ」になる(壱人のBAD2です)

◎壱人グッドです

☆9日 夜の巡回 ?名無しの社 に行くと B11「供物の娘」になる(風鬼に殺されて、ピーの生贄となる)

*三鬼のイベント(6日昼の?から~)を全部見る、高虎GE見ぬ状態

◎三鬼グッドです

☆10日まで経った、攻略対象フラグOFFままとB12「そして明日に繋がる」になる(安綱さんと一緒に結界を開く為死んでしまう)←何度もこのエンドを見ました…TT

☆B13「ユメノオワリ」まだ…

◎薙羽哉グッド(夢の続き、ねw)

☆B14「ひび、割れる」(祇王BAD1)まだ…

☆祇王ルート中、26日「過去」イベントで 「探るような、その問いにわたしは――」布を外せなかった と最後にB15「ひび、深く」になる(祇王BAD2 会えなくなる)

◎祇王グッドです

☆愁バッド まだ…

◎愁グッド

☆高虎バッド まだ…

◎高虎グッド

☆11日 カガチルート中、「カガチと一緒に――」で どこか別の場所を探す とB18「輝血」(カガチちゃんのBAD1 沙耶は殺され、ふたりは共に逝ってしまう)

☆カガチルートのグッドと同じ流れで 平日退魔しません とB19「遠き、理想郷」(カガチちゃんのBAD2 カガチは命賭けて太夫とアヤを祓う、消えてしまう)

◎カガチグッド

☆11日 東雲ルート中、「わたしが選ぶのは――」郷に戻らない  とB20「タソガレ」(東雲バッド 郷のみんな死んでしまう…?)

◎東雲グッド

◎東雲ベスト「あさき、ゆめみし」(これやばい…)

◎X7 メイン七人の「夢七夜」GOODの後話(GEに続いて発生)

[メモ]8日夜にCTM称号を得られます(きゃふぇ?まだらを回ろう~)

また更新するかな…?


おまけです^^

BGM最高!テーマも超素敵(?)vvv

TITLE "「あさき、ゆめみし」サントラCD disc.2"
FILE "2.wav" WAVE
  TRACK 01 AUDIO
    TITLE "01 夜風"
    PERFORMER ""
    INDEX 01 00:00:00
  TRACK 02 AUDIO
    TITLE "02 ひだまりの郷"
    PERFORMER ""
    INDEX 01 03:51:42
  TRACK 03 AUDIO
    TITLE "03木漏れ日の散歩道"
    PERFORMER ""
    INDEX 01 06:53:62
  TRACK 04 AUDIO
    TITLE "04 おはよう朝ごはん"
    PERFORMER ""
    INDEX 01 09:24:69
  TRACK 05 AUDIO
    TITLE "05 いたずら猫にご用心!? "
    PERFORMER ""
    INDEX 01 11:55:69
  TRACK 06 AUDIO
    TITLE "06 幸せの温度"
    PERFORMER ""
    INDEX 01 14:18:19
  TRACK 07 AUDIO
    TITLE "07 ぬばたまの夜渡る月"
    PERFORMER ""
    INDEX 01 17:40:53
  TRACK 08 AUDIO
    TITLE "08 .抜け殻8"
    PERFORMER ""
    INDEX 01 20:59:31
  TRACK 09 AUDIO
    TITLE "09 待宵草"
    PERFORMER ""
    INDEX 01 23:49:39
  TRACK 10 AUDIO
    TITLE "10 妖-アヤカシ-"
    PERFORMER ""
    INDEX 01 26:23:55
  TRACK 11 AUDIO
    TITLE "11 帳にひそむ怪"
    PERFORMER ""
    INDEX 01 30:10:26
  TRACK 12 AUDIO
    TITLE "12 歪みの繭"
    PERFORMER ""
    INDEX 01 32:52:45
  TRACK 13 AUDIO
    TITLE "13 琵琶独奏"
    PERFORMER ""
    INDEX 01 35:58:51
  TRACK 14 AUDIO
    TITLE "14 宵の明星"
    PERFORMER ""
    INDEX 01 37:13:31
  TRACK 15 AUDIO
    TITLE "15 太刀風"
    PERFORMER ""
    INDEX 01 39:51:06
  TRACK 16 AUDIO
    TITLE "16 永夜の咎"
    PERFORMER ""
    INDEX 01 41:56:10
  TRACK 17 AUDIO
    TITLE "17 儚き夢を"
    PERFORMER ""
    INDEX 01 44:49:72
  TRACK 18 AUDIO
    TITLE "18 決意"
    PERFORMER ""
    INDEX 01 47:29:36
  TRACK 19 AUDIO
    TITLE "19 夢の続き"
    PERFORMER ""
    INDEX 01 53:40:44

 

 

 

  评论这张
 
阅读(133)| 评论(1)
推荐 转载

历史上的今天

评论

<#--最新日志,群博日志--> <#--推荐日志--> <#--引用记录--> <#--博主推荐--> <#--随机阅读--> <#--首页推荐--> <#--历史上的今天--> <#--被推荐日志--> <#--上一篇,下一篇--> <#-- 热度 --> <#-- 网易新闻广告 --> <#--右边模块结构--> <#--评论模块结构--> <#--引用模块结构--> <#--博主发起的投票-->
 
 
 
 
 
 
 
 
 
 
 
 
 
 

页脚

网易公司版权所有 ©1997-2017